#TITLE:Flames of Revenge;
#SUBTITLE:;
#ARTIST:Rhapsody;
#TITLETRANSLIT:;
#SUBTITLETRANSLIT:;
#ARTISTTRANSLIT:;
#CREDIT:;
#BANNER:flamesbn.png;
#BACKGROUND:flamesbg.png;
#LYRICSPATH:;
#CDTITLE:kire3.png;
#MUSIC:05-Flames Of Revenge.mp3;
#OFFSET:-0.068;
#SAMPLESTART:33.333;
#SAMPLELENGTH:12.000;
#SELECTABLE:YES;
#BPMS:0.000=180.000,48.000=90.000,50.000=180.000,114.000=90.000,116.000=180.000,180.000=90.000,192.000=45.000,193.000=180.000,217.000=90.000,219.000=180.000,283.000=90.000,295.000=45.000,296.000=180.000,352.000=90.000,356.000=180.000,420.000=90.000,422.000=180.000,438.000=90.000,446.000=180.000,470.000=90.000,555.000=180.000,619.000=90.000,631.000=180.000,691.000=90.000,695.000=180.000,823.000=90.000,831.000=180.000;
#STOPS:;
#BGCHANGES:;
// cache tags:
#FIRSTBEAT:0.000;
#LASTBEAT:832.000;
#SONGFILENAME:Songs/Music V.I.P ^_^/flames of revenge/flame.sm;
#HASMUSIC:1;
#HASBANNER:1;
#MUSICLENGTH:334.662;
// end cache tags

//---------------dance-single - ----------------
#NOTES:
     dance-single:
     :
     Hard:
     11:
     1.000,1.000,0.397,0.415,1.000,2460.000,133.000,139.000,0.000,1.000:
1001
0000
0100
0000
0001
0000
1000
0000
0001
0000
1000
0000
,
0001
0000
1000
0000
0001
0000
1000
0000
0001
0000
1000
0000
,
2002
0000
0000
0000
3003
0000
0220
0000
0000
0000
0330
0000
,
0010
0000
1000
0000
0010
0000
0100
0000
1000
0000
0001
0000
,
0011
0000
0010
0000
0100
0000
1000
0000
0100
0000
1000
0000
,
2002
3003
0220
0330
,
1010
1000
0010
0100
0001
0010
0001
0010
0100
0010
0100
1000
,
0100
0010
0001
0100
0010
1000
0100
0010
0001
0010
0100
0010
,
0001
1000
0100
0010
0100
1000
0100
1000
0010
1000
0010
1000
,
0010
0100
0010
1000
0100
0010
0100
0010
1000
0010
1000
0001
,
0010
0001
0010
1000
0010
0001
0010
0001
0010
0100
1000
0100
,
0010
1000
0010
0001
0010
0001
1000
0010
0100
0010
0100
0010
,
0220
0000
0000
0000
0000
0000
0000
0300
1030
0100
0010
0001
0100
0010
1000
0010
,
1000
0001
1000
0010
1000
0100
0010
1000
0010
0001
0010
0100
0010
1000
0010
0001
,
0010
0001
1000
0001
0010
0001
0100
0001
1000
0001
0010
1000
0010
0001
0010
0100
,
1000
0001
1000
0100
1000
0001
1000
0010
1000
0010
1000
0100
1000
0100
1000
0010
,
0100
0001
0100
0001
0010
0001
0100
0001
0010
0001
1000
0001
0010
0001
1000
0100
,
0010
0001
0100
0010
1000
0100
0010
0001
0010
0100
1000
0010
0100
0001
1000
0010
,
0100
0001
0100
1000
0100
0001
0100
0010
2000
0000
0000
3000
0101
0000
1010
0000
,
0000
0000
0001
0010
0001
0010
0002
0000
0000
0000
0000
0000
0013
0000
0010
0100
,
1000
0010
0100
0001
0010
0100
1000
0100
1000
0010
1000
0001
1000
0010
0100
1000
,
0100
0001
0100
1000
0100
0010
0100
0010
0100
1000
0100
0001
0100
0001
0100
0001
,
1000
0001
0010
0001
1000
0001
0010
0001
0010
0100
1000
0001
0010
0100
1000
0100
,
0010
0001
1000
0100
0010
0001
1000
0010
0100
0001
1000
0010
0100
0001
0010
0100
,
1000
0001
0100
0010
1000
0001
0100
0010
1000
0100
0010
0100
1000
0100
0010
0001
,
0010
0100
0010
0001
0100
0010
1000
0100
0010
0100
1000
0010
0100
0001
0010
0100
,
0010
0001
0010
0100
1000
0100
0010
0001
0100
0010
2000
0000
0010
3001
1000
0000
,
0000
0000
0001
0010
0001
0010
0002
0000
0000
0000
0000
0000
0103
0010
0001
0000
,
0000
0000
0000
0000
0001
0000
0100
0000
0001
0000
0100
0000
0001
0000
0000
0000
2002
0000
0000
0000
0000
0000
0000
0000
0000
0000
0000
0000
0000
0000
0000
3003
,
0100
0010
0100
0001
0100
1000
0100
0010
0100
0001
0100
0010
0001
1000
0001
0100
,
0001
0010
0001
0010
0001
1000
0001
0010
0001
0100
0010
1000
0010
0100
0001
0010
,
0100
1000
0100
0010
0001
1000
0100
0010
0001
0100
0010
1000
0001
0100
0010
1000
,
0001
0100
0010
1000
0100
0010
0100
1000
0100
0010
0100
1000
0001
0010
0100
0010
,
0001
0010
0100
0010
0001
1000
0010
1000
0100
1000
0010
1000
0001
1000
0001
1000
,
0001
0010
0001
1000
0001
0100
0001
1000
0001
1000
0100
1000
0001
1000
0010
1000
,
0001
1000
0100
0010
0100
0001
0100
1000
0100
1000
0100
0010
0001
1000
0001
0010
,
1100
0100
0011
0001
0101
0001
1010
1000
,
1001
0100
0010
0001
0010
0100
1000
0010
0100
0001
0100
0010
1000
0100
0010
0100
,
1000
0001
0010
0100
0010
0001
0100
0001
0010
0001
0100
0001
1000
0001
0010
0001
,
1000
0100
0010
1000
0010
0001
0010
0100
0010
1000
0010
0100
0010
0001
0010
0001
,
0010
0100
0010
0100
0001
0100
1000
0100
0001
0100
0010
0100
1000
0100
1000
0010
,
1000
0001
1000
0010
1000
0100
1000
0010
1000
0100
0010
0001
1000
0001
0100
0001
,
0100
0001
0010
0001
0100
0010
1000
0010
0100
0001
0010
0100
1000
0100
0010
0001
,
1000
0100
0010
0001
0010
0100
1000
0001
0010
0100
1000
0010
0100
0010
0100
0010
,
0011
0100
1010
0100
0110
0001
1001
0100
,
1002
0000
0000
0000
0000
0000
0000
0000
0000
0000
0000
0000
0000
0000
0000
0000
0000
0000
0000
0000
0000
0000
0000
0000
0000
0000
0000
0000
0000
0000
0003
0000
0000
0000
0000
0000
2000
0000
0000
0000
0000
0000
0000
0000
0000
0000
0000
0000
0000
0000
0000
0000
0000
0000
3000
0000
0000
0000
0000
0000
0000
0000
0000
0000
0000
0000
0200
0000
0000
0000
0000
0000
0000
0000
0000
0000
0000
0000
0000
0000
0000
0000
0000
0000
0300
0000
0000
0000
0000
0000
0020
0000
0000
0000
0000
0000
0000
0000
0000
0000
0000
0000
0000
0000
0000
0000
0000
0000
0000
0000
0000
0000
0000
0000
0000
0000
0000
0000
0000
0000
0030
0000
0000
0000
0000
0000
0000
0000
0000
0000
0000
0000
0001
0000
0000
0000
0000
0000
0000
0000
0000
0000
0000
0000
1000
0000
0000
0000
0000
0000
0000
0000
0100
0000
0000
0000
0000
0000
0000
0000
0010
0000
0000
0000
0000
0000
0000
0000
0001
0000
0000
0000
0000
0000
0020
0000
0000
0000
0000
0000
0000
0000
0000
0000
0000
0000
0030
0000
0000
0000
0000
0000
,
0200
0000
0000
0000
0300
0000
0020
0000
0000
0000
0030
2000
0000
0000
0000
3200
0000
0000
0000
0000
0000
0000
0000
0000
0000
0000
0300
0000
0020
0000
0000
0030
,
0002
0000
0000
0000
0000
0003
0200
0000
0000
0300
0000
2000
0000
0000
3000
0020
0000
0000
0000
0000
0000
0000
0000
0000
0000
0000
0000
0000
0000
0000
0000
0000
,
2032
0000
0000
3003
1000
0100
0010
0001
1000
0100
0010
0001
0010
0100
1000
0001
,
0010
0100
1000
0010
0100
0001
0100
0010
1000
0010
0100
0001
0100
0010
1000
0100
,
0010
0100
1000
0001
0010
0100
0010
0001
1000
0001
1000
0100
1000
0001
1000
0010
,
1000
0100
0010
0100
0010
0001
0010
0100
0010
0100
0010
1000
0010
0001
0010
0100
,
0010
0001
0100
0001
0100
1000
0100
0010
0100
0001
0100
0010
0100
1000
0100
0010
,
0100
0001
1000
0010
0001
0010
0100
0010
0001
0010
1000
0010
1000
0100
1000
0001
,
1000
0100
0010
0100
0220
0000
0000
0000
0000
0000
0000
0330
1010
0100
0010
0001
,
0100
0010
1000
0100
0010
0001
0100
0010
1000
0010
0100
0001
0010
0100
1000
0001
,
0010
0100
1000
0100
0010
0001
1000
0100
0010
0001
1000
0010
0100
0001
1000
0010
,
0100
0001
1000
0001
0100
0001
0010
0001
0100
0001
0010
0001
1000
0001
0010
0100
,
0010
0100
0001
0100
1000
0100
0001
0100
0010
0100
1000
0100
1000
0001
1000
0100
,
1000
0010
1000
0001
1000
0010
1000
0100
1000
0001
0100
0001
1000
0001
0100
0001
,
1000
0001
0010
0001
0010
0001
1000
0001
0100
0001
0010
0100
1000
0100
1000
0010
,
1000
0001
1000
0010
1000
0001
1000
0010
1000
0100
0010
0001
1001
0000
0100
0000
,
0110
0000
0001
0000
1010
0000
0100
0000
0101
0000
1000
0000
1001
0100
0010
0001
,
0010
1000
0010
1000
0010
0001
0010
0100
0010
1000
0100
1000
0001
1000
0010
1000
,
0100
1000
0001
1000
0010
1000
0001
1000
0010
0100
0001
1000
0001
0010
0001
1000
,
0001
0100
0001
0100
0001
0010
0001
1000
0001
0010
0100
1000
0100
0010
0001
0010
,
0100
1000
0100
0010
0001
0010
0100
1000
0010
0100
0001
0100
0010
1000
0010
0100
,
0001
0100
0010
1000
0010
0100
0001
0100
0010
1000
0001
0100
0001
0010
0001
1000
,
0001
0100
0001
0010
0001
0010
0001
1000
0001
0100
0010
0100
1000
0100
0001
0100
,
1000
0100
0010
0100
0001
0100
0001
0100
1000
0100
0001
0010
1100
0000
0100
0000
,
0010
0000
0000
0000
0001
0000
0000
0000
0100
0000
0000
0000
0010
0000
0000
0000
0001
0000
0000
0000
1000
0000
0000
0000
1002
0000
0000
0000
0000
0000
0020
0003
,
0000
0000
0000
0230
0000
0000
0000
2000
0300
0000
0000
0000
3000
0000
1002
0000
0000
0000
0000
0023
0000
0000
0000
0000
0230
0000
0000
0000
0000
0000
0320
0000
,
0000
0000
0030
1002
0000
0000
0000
0000
2000
0000
0000
0000
0000
0000
0000
0003
0000
0000
0000
3000
0021
0000
0000
0000
0200
0030
0000
0000
0000
0000
2000
0300
,
0000
0000
0000
0000
0000
0000
0020
0000
3000
0000
0000
0000
0000
0000
0030
0000
0220
0000
0000
0000
0000
0000
0000
0000
0000
0000
0000
0000
0000
0000
0000
0000
0000
0000
0000
0000
0000
0000
0000
0000
0000
0000
0000
0000
0330
0000
0000
0000
2002
0000
0000
0000
0000
0000
0000
0000
0000
0000
0000
0000
0000
0000
0000
3003
,
0101
0010
0100
1000
0010
0100
0001
0100
0010
1000
0001
0010
0100
1000
0100
0010
,
0101
0010
0100
1000
0100
0010
0001
0010
0011
0100
0010
1000
0100
0010
0001
1000
,
1010
0100
0001
0100
1000
0100
0010
0100
0010
0100
0001
0100
1000
0100
0010
1000
,
0010
0100
0010
1000
0010
0001
0010
0001
0010
1000
0010
0001
0010
0100
1000
0100
,
1100
0010
0100
0001
0010
0100
0010
0001
0010
0100
1000
0100
0010
0100
1000
0100
,
1001
1000
0010
1000
0100
1000
0001
1000
0100
1000
0001
1000
0010
1000
0001
1000
,
0110
0100
0001
0010
0100
1000
0100
0010
0001
0010
0100
0010
0001
0010
0100
1000
,
0100
0010
0100
1000
0001
1000
0001
1000
0010
0100
0001
0100
0010
1000
0100
0010
,
1001
0100
0001
1000
0001
0010
0001
0100
0001
0010
0100
1000
0100
0010
0001
1000
,
0010
1000
0001
1000
0100
1000
0010
1000
0101
1000
0100
0010
0001
0010
0100
1000
,
1010
0100
0001
0100
1000
0100
0001
0100
0010
1000
0001
0100
0001
0010
0001
1000
,
0001
0010
0100
1000
0100
0010
0001
0010
0011
0100
0010
1000
0001
0010
0100
1000
,
1100
1000
0100
0010
0001
0010
0100
1000
0100
0010
0100
1000
0001
0010
0100
0010
,
0001
0100
0001
0010
0001
1000
0001
0010
0001
1000
0001
0100
0001
0010
0100
1000
,
2002
0000
0000
0000
0000
0000
0000
0000
0000
0000
0000
0000
0000
0000
3000
0000
2000
0000
0003
0000
0000
0000
0002
0000
3000
0000
0000
0000
0020
0003
0030
0000
,
0011
0100
0010
0100
0010
0100
0010
1000
0010
0100
0001
1000
0010
0100
0010
0100
,
1000
0100
0001
0100
0010
1000
0010
0001
0010
0100
1000
0001
1000
0001
1000
0010
,
1000
0100
1000
0001
1000
0001
0100
0001
0010
0001
1000
0001
0100
0001
0100
0010
,
0100
1000
0100
0001
0010
0001
1000
0001
0100
0001
1000
0001
1000
0100
1000
0010
,
0001
0010
1000
0010
0100
0010
1000
0001
1000
0010
1000
0100
1000
0010
0100
0001
,
1000
0001
0100
0001
1000
0001
0010
0100
0010
0001
1000
0001
0010
0001
0010
0100
,
2000
0000
3000
0000
1001
0000
1001
0000
0000
0000
0010
0001
0010
0000
0001
0000
,
0100
0000
0000
0000
0001
0010
0100
0001
0100
0010
1000
0100
0010
0001
0100
0010
,
1000
0100
1000
0010
1000
0100
0001
0100
0010
0100
1000
0001
1000
0010
1000
0100
,
1000
0001
0010
0100
0010
0001
0010
0100
0010
1000
0010
0001
0100
0001
1000
0001
,
0010
0100
0001
0100
0010
1000
0010
0100
0010
0001
0010
1000
0010
0001
0010
0100
,
1000
0100
1000
0100
1000
0001
0010
0001
0100
0010
1000
0001
0010
0001
1000
0001
,
0100
1000
0100
0010
0100
1000
0100
0001
0100
0001
0010
0001
1000
0001
0100
0001
,
1000
0100
1000
0010
1000
0001
1000
0010
1000
0001
1000
0010
0001
0010
0100
0010
,
1000
0000
0000
0000
0011
0000
1100
0000
0000
0000
0001
0010
0001
0000
1010
0000
,
0101
0000
0000
0000
0010
0100
1000
0100
0010
0001
0010
0100
1000
0010
0100
0001
,
0022
0000
0000
0000
0000
0000
0000
0000
0000
0000
0000
0000
0000
0000
0000
0033
2002
0000
0000
0000
0000
0000
0000
0000
0000
0000
0000
0000
3003
0000
0000
0000
,
0220
0000
0000
0330
2002
0000
0000
3003
,
0220
0000
0000
0330
2020
0000
0000
3030
,
0202
0303
0101
0000
2200
0000
0000
0000
,
0000
3300
0102
0203
,
0320
0000
0000
0000
2030
0000
0000
0000
3200
0000
0000
0000
0000
0000
0000
0300
,
2002
0000
0000
0000
0000
0000
0000
3003
1001
0000
0000
0000
0000
0000
0000
0000
,
0110
0000
1010
0000
,
0101
0000
0022
0000
,
0000
0033
0011
0000
2002
0000
0000
0000
,
0000
0000
0000
3003
1001
0000
0000
0000
,
0110
0000
1010
0000
,
0101
0000
0022
0000
,
0000
0000
0000
0000
0000
0000
0000
0030
1000
0000
0000
0000
0100
1000
0000
0100
,
1000
0000
0000
0010
1000
0000
0000
0010
0100
0003
0000
0001
0010
0000
0000
0100
,
1000
0000
0000
0010
0100
0000
0000
0001
0010
0000
0000
0100
1000
0000
0000
0010
,
1000
0000
0000
0010
0100
0000
0000
0001
0010
0000
0000
0001
0010
0000
0000
1000
,
0100
0000
0000
1000
0010
0000
0000
0010
2000
0000
0000
3001
0020
0000
0030
0001
,
1000
0010
0100
0001
0020
0000
0030
0100
2000
0000
3000
0010
0200
0000
0000
0301
,
0010
0100
1000
0010
0100
0000
0001
0000
0010
0000
0000
0100
0010
0000
0000
0100
,
1000
0010
0100
0001
0010
0100
0000
0100
1000
0010
0100
0001
0010
1000
0010
0001
,
0100
0010
1000
0010
1000
0000
1010
0000
1002
0000
0000
1003
0001
0100
1000
0100
,
2000
0000
0000
0000
3000
0100
1000
0100
0010
0002
0000
0000
0013
0001
0100
0001
,
0100
0010
1000
0010
1000
0010
1000
0100
0210
0000
0000
0310
0001
0100
0001
0010
,
0200
0000
0000
0000
1300
0010
1000
0010
0200
0000
0000
0301
0010
0001
0010
0100
,
1000
0010
0100
0010
0100
0001
0010
0100
1100
0000
0010
0000
1001
0000
1000
0000
,
0101
0001
0011
0010
1100
1000
1010
0010
,
0110
0000
0000
0000
0100
0000
0000
0010
0101
0000
0000
0000
0001
0000
0000
1000
0011
0000
0000
0000
1000
0000
0000
0010
1100
0000
0000
0000
0001
0000
0000
0010
,
1010
0000
0000
0000
0100
0000
0000
0100
0110
0000
0000
0000
1000
0000
0000
0010
0101
0000
0000
0000
0010
0000
0000
0001
0011
0000
0000
0000
0001
0000
0000
1000
,
2200
0000
3300
0000
2002
0000
0000
3003
0220
0000
0330
0000
1010
0000
0001
1000
,
0001
0000
0100
0001
0100
0000
0001
0010
0100
0000
1000
0010
1000
0000
0010
0100
,
0010
0000
0100
0010
0100
0001
0010
0100
1000
0010
0100
0001
0010
0000
0001
0100
,
0001
0000
0010
0100
1000
0000
0010
1000
1010
0000
0010
0100
0010
0000
0001
0100
,
0001
0100
0001
0010
1100
0000
1100
0000
2200
0000
0000
3300
1100
0010
0001
0100
,
0010
1000
0010
0100
0001
0010
0100
0010
0001
1000
0100
0010
0001
0010
0100
1000
,
0100
0010
0100
1000
0001
0100
0010
1000
0010
0100
0001
0010
0001
1000
0001
0100
,
0001
1000
0100
1000
0010
1000
0100
1000
0100
0010
0100
0001
0100
1000
0002
0000
,
0003
0000
0010
0100
2000
0000
0000
0000
0000
0000
3000
0000
1000
0100
0010
0100
,
0010
1000
0010
0001
0100
0001
1000
0001
0010
0100
1000
0001
1000
0100
0001
0100
,
1000
0010
1000
0100
1000
0001
1000
0001
0010
0001
0100
0001
1000
0010
0100
1000
,
0100
0001
0100
0010
1000
0010
0001
0010
0100
0010
1001
0000
1001
0000
1000
0000
,
1100
0000
0001
0000
0011
0000
1000
0000
1010
0000
0010
0000
1001
0100
0010
0100
,
0010
0001
0010
1000
0010
0100
0010
0100
1000
0100
0001
0100
1000
0100
0001
0100
,
0001
1000
0001
1000
0100
1000
0010
1000
0100
1000
0001
0100
0001
0000
0001
1000
,
0001
0000
0100
0010
0001
0000
0100
0001
1000
0000
0100
0010
0100
0010
0001
0010
,
0001
1000
0100
0010
0001
0100
0020
0000
0000
0000
0030
0000
1000
0100
0010
0001
,
0100
0010
1000
0001
0100
0010
1000
0100
0010
0001
1000
0010
0100
0001
0100
0010
,
1000
0001
0010
0100
1000
0100
0010
0001
0100
0010
1000
0100
0010
0100
1000
0001
,
0010
0100
0010
0001
1000
0100
1000
0001
1000
0100
0010
0001
0100
0010
1000
0001
,
1000
0000
0010
0000
0100
0000
0001
0000
1000
0000
0100
0000
0010
0000
0001
0000
1000
0000
0100
0000
0010
0000
0001
0000
1002
0000
0000
0000
0000
0020
0000
0003
,
0000
0000
0000
0230
0000
0000
0000
2000
0000
0000
0000
0300
0000
0000
0020
0000
3000
0000
0000
0230
0000
0000
0000
0002
0000
0300
0000
0000
0020
0000
0003
0000
,
0000
0000
0230
0000
0000
0000
0000
2000
0000
0000
0000
0000
0000
0000
0000
0000
0300
3000
0000
0000
2000
0000
0000
0000
3020
0000
0000
0000
0000
0000
0230
0000
,
0000
0000
0000
0302
0000
0000
0000
0020
0000
0000
0000
0000
0000
0000
0000
0000
0000
0000
0000
0000
0000
0033
0000
0000
2002
0000
0000
0000
0000
0000
0000
0000
,
0000
0000
0000
0000
0000
0000
0000
0000
3003
0000
0000
0000
0011
1000
0001
0010
,
0100
1000
0100
0010
0100
1000
0010
0100
0001
0100
0001
1000
0011
1000
0001
0100
,
0001
1000
0010
1000
1010
0001
1000
0100
0010
0100
1000
0100
1100
0001
0010
0001
,
0100
0001
1000
0001
1000
0001
0010
0001
0100
0001
1000
0100
1000
0001
1000
0100
,
1000
0010
1000
0010
1000
0100
1000
0010
1000
0001
0100
0001
0101
1000
0001
0010
,
0100
1000
0100
0010
0001
0100
0010
1000
0100
0010
0001
0010
0110
0100
1000
0100
,
0001
0100
0010
0100
0001
0100
0010
0100
1000
0100
0010
0100
1001
0001
0010
0100
,
0001
0100
0001
1000
0010
1000
0001
1000
0010
1000
0001
0100
0001
1000
0001
0100
,
0010
0100
0010
0100
0001
0010
0100
1000
0100
0010
0001
1000
0110
0001
0010
0100
,
0010
1000
0010
0001
0010
0100
1000
0100
1000
0100
0010
0100
1000
0100
0010
0100
,
0001
0100
1000
0100
0011
0100
0001
1000
0010
1000
0001
0100
1100
0001
0010
0001
,
0100
0001
0010
0001
1000
0100
0010
0001
0010
1000
0010
0100
0010
1000
0001
0100
,
0001
1000
0010
1000
1010
0001
1000
0100
0010
1000
0001
0100
0101
0100
0001
1000
,
0010
1000
0001
0100
0001
1000
0001
0100
0010
1000
0001
1000
0010
0001
0010
1000
,
0010
0100
0010
1000
0010
0100
0010
0001
0010
1000
0001
0100
0220
0000
0000
0000
,
0000
0000
0000
0000
0000
0330
0000
0000
2000
0000
0000
0000
0000
0000
0002
0000
3000
0000
0000
0000
0023
0000
0000
0000
0130
0000
1000
0000
0100
0000
0010
0000
,
0001
0010
0100
1000
0010
0100
0001
0100
0010
1000
0100
0010
0100
1000
0100
0010
,
0001
0010
0100
0010
0001
0010
0100
1000
0010
0100
0001
1000
0010
0100
0001
0100
,
0010
0001
0010
1000
0010
0100
0010
1000
0010
0100
0001
1000
0010
0100
0001
0100
,
0010
1000
0001
1000
0001
1000
0100
1000
0100
0010
0100
0010
1000
0010
0001
0010
,
0001
0100
0001
1000
0001
0010
0001
0100
0001
0010
0100
1000
0010
0001
0010
0100
,
0010
1000
0001
1000
0100
0010
0001
1000
0010
0100
0001
0010
0100
1000
0100
0010
,
0001
0000
0000
0010
0000
0000
0100
0000
0000
1000
0000
0000
0100
0000
0000
0000
0010
0000
0000
0000
0001
0000
0000
0000
0010
0000
0000
0000
0100
0000
0000
0000
1000
0000
0000
0000
0010
0000
0000
0000
1000
0000
0000
0000
0001
0000
0000
0000
,
1000
0000
0000
0000
0010
0000
0000
0000
0100
0000
0000
0000
0001
0000
0000
0000
0010
0000
0000
0000
0100
0000
0000
0000
0010
0000
0000
0001
0000
0000
0010
0000
0000
0100
0000
0000
1000
0000
0000
0010
0000
0000
0100
0000
0000
0001
0000
0000
,
0100
0010
1000
0100
0010
0001
1000
0100
0010
0001
0010
0100
1000
0001
0100
0010
,
1000
0001
0100
0010
1000
0010
0100
0001
1000
0010
0100
0001
0010
0100
1000
0001
,
0010
0100
0010
0001
1000
0100
0010
0100
1000
0100
0010
0100
1000
0100
0010
0001
,
0010
0100
0010
0001
0010
0100
0010
0001
1000
0100
1000
0010
1000
0001
0010
0001
,
0100
0001
1000
0001
0010
0001
0010
0100
0010
0001
0010
0100
0010
0100
1000
0010
,
1000
0100
1000
0010
0001
0010
0100
0010
1000
0001
0100
1000
0100
0001
0100
0010
,
1000
0100
0010
0001
0010
0100
1000
0010
0100
0001
1000
0010
0100
0001
0010
0100
,
1000
0100
0010
0100
1000
0100
0010
0001
0010
0100
0010
0001
1000
0000
1000
0000
,
0001
0110
1000
0010
,
0100
0010
0100
0001
,
0010
0001
0010
0000
0100
0000
1000
0010
,
1000
0000
0010
0100
0010
0000
0100
0001
,
0100
0001
0010
0100
1000
0100
1000
0010
,
0100
0001
0010
0100
1000
0010
0100
0001
,
0010
0001
1000
0010
0100
0001
0010
0100
,
1000
0010
0100
0001
0010
0100
2000
0000
,
0000
0000
0000
0000
,
0000
0000
0000
0000
0000
0000
0002
3000
,
0000
0000
0000
0000
,
0000
0000
0000
2000
,
0000
0000
0000
0000
0000
3003
0011
0000
,
0000
1100
0000
2020
,
0000
0000
0000
0000
0000
3030
0220
0000
,
0000
0000
0000
0000
0000
0000
0000
0000
0000
0000
0330
0000
1002
0100
0010
0100
,
1000
0100
0010
0100
1000
0100
1000
0100
1000
0010
0100
0010
0100
0010
1000
0010
,
1000
0010
1000
0100
0010
0100
1000
0100
0010
0100
1000
0013
0110
0000
0000
0000
;

//---------------dance-single - ----------------
#NOTES:
     dance-single:
     :
     Challenge:
     13:
     1.000,1.000,0.867,0.457,1.000,2784.000,290.000,153.000,0.000,31.000:
1001
0000
0110
0000
0101
0000
1010
0000
0011
0000
1100
0000
,
1001
0000
1001
0000
0110
0000
0110
0000
1001
0000
1001
0000
,
2002
0000
0000
0000
3003
0000
0220
0000
0000
0000
0330
0000
,
1010
0000
1000
0000
0010
0000
0100
0000
1000
0000
0001
0000
,
0011
0000
0010
0000
0100
0000
1000
0000
0100
0000
1000
0000
,
2002
3003
0220
0330
,
1010
1000
0010
0100
0001
0010
1001
0010
0100
1010
0100
1000
,
0101
0010
0001
1100
0010
1000
0110
0010
0001
0011
0100
0010
,
1001
1000
0100
0011
0100
1000
1100
1000
0010
1001
0010
1000
,
0110
0100
0010
1100
0100
0010
0101
0010
1000
0011
1000
0001
,
1010
0001
0010
1100
0010
0001
0110
0001
0010
0101
1000
0100
,
1010
1000
0010
0110
0010
0001
1010
0010
0100
0011
0100
0010
,
0220
0000
0000
0000
0000
0000
0000
0300
1030
0100
0010
0001
0100
0010
1000
0010
,
1000
0001
1000
0010
1000
0100
0010
1000
0010
0001
0010
0100
0010
1000
0010
0100
,
1000
0001
1000
0100
0010
0001
0100
0010
1000
0001
0100
1000
0100
0001
0010
0100
,
0010
0001
0010
0100
1000
0001
1000
0010
0001
0100
1000
0010
0001
0100
1000
0010
,
0100
1000
0100
1000
0010
1000
0100
1000
0010
0001
1000
0001
0010
0001
1000
0100
,
0010
0001
0100
0010
1000
0100
0010
0001
0010
0100
1000
0010
0100
0001
1000
0010
,
0100
0001
0010
1000
0100
0001
0100
0001
1000
0010
1000
0001
2010
0000
0000
0000
,
3000
0000
1000
0001
1000
0001
0100
0000
0020
0000
0000
0000
1030
0001
0010
0100
,
1000
0010
0100
0001
0010
0100
1000
0100
0001
0010
1000
0001
1000
0010
0001
1000
,
0100
0001
0100
1000
0100
0001
0100
1000
0010
1000
0100
0001
0010
1000
0100
0001
,
1000
0001
0100
0010
1000
0001
0100
0001
0010
0100
1000
0001
0010
0001
1000
0100
,
0010
0001
1000
0100
0010
0001
0010
0010
0100
0001
1000
0010
0100
0001
0010
0100
,
1000
0001
0100
0010
1000
0001
0100
0010
1000
0100
0010
0100
1000
0100
0010
0001
,
0010
0100
0010
0001
0100
0010
1000
0100
0010
0100
1000
0010
0100
0001
0010
0100
,
1000
0100
0010
0001
1000
0000
0000
0000
1100
0000
1001
0000
1100
0000
0000
0000
,
1000
0000
0001
0001
0010
0001
0010
0000
0001
1000
0000
0000
0110
0000
1001
0000
,
0001
0000
0010
0000
0001
0000
0010
0000
0001
0000
0000
0000
0010
0000
0000
0000
2002
0000
0000
0000
0000
0000
0000
0000
0000
0000
0000
0000
0000
0000
0000
3003
,
0100
0010
0100
0001
0100
1000
0100
0010
0100
0001
0100
0010
0001
1000
0001
0100
,
0001
0010
0010
0010
0001
1000
0100
0010
0001
0100
0010
1000
0010
0100
0001
0010
,
0100
1000
0100
0010
0001
1000
0100
0010
0001
0100
0010
1000
0001
0100
0010
1000
,
0001
0100
0010
0001
1000
0010
0100
0001
1000
0010
0100
1000
0001
0010
0100
0010
,
0001
0010
0100
0010
0001
0001
0010
0001
0100
0001
0010
1000
0001
1000
0001
1000
,
0001
0010
0001
1000
0001
0100
0001
0010
0001
1000
0100
0010
0001
1000
0010
1000
,
0001
0010
0100
0010
1000
0001
0100
1000
0010
1000
0100
0010
0001
1000
0001
0010
,
1100
0100
0011
1000
0110
0001
1001
1000
,
0011
0100
0010
0001
0010
0100
1000
0010
0100
0001
0100
0010
1000
0100
0010
0100
,
1000
0001
0010
0100
0010
0001
0100
1000
0010
0010
0100
0001
1000
0100
0010
0001
,
1000
0100
0010
1000
0010
0001
0010
0100
0010
1000
0001
0100
0010
0001
1000
0001
,
0010
0100
1000
0100
0001
0010
1000
0100
0001
0010
0010
0001
1000
0100
1000
0010
,
1000
0001
1000
0010
0001
0100
0001
0010
1000
0100
0010
0001
1000
0001
0100
1000
,
0100
0001
0010
0001
0100
0010
1000
0010
0100
0001
0010
0100
1000
0100
0010
0001
,
1000
0100
0010
0001
0010
0100
1000
0001
0010
0100
1000
0010
0100
0010
0100
0010
,
0011
0100
1010
0100
0110
0001
1001
0100
,
1200
0000
0000
0000
0000
0000
0000
0000
0000
0000
0000
0000
0000
0000
0000
0000
0000
0000
0000
0000
0000
0000
0000
0000
0000
0000
0000
0000
0000
0000
0000
0000
0300
0000
0000
0000
2000
0000
0000
0000
0000
0000
0000
0000
0000
0000
0000
0000
0000
0000
0000
0000
0000
0000
3000
0000
0000
0000
0000
0000
0000
0000
0000
0000
0000
0000
0201
0000
0000
0000
0000
0000
0000
0000
0000
0000
0000
0000
0000
0000
0000
0000
0000
0000
0300
0000
0000
0000
0000
0000
0000
0000
0000
0000
0000
0000
0220
0000
0000
0000
0000
0000
0000
0000
0000
0000
0000
0000
0000
0000
0000
0000
0000
0000
0000
0000
0000
0000
0000
0000
0000
0000
0000
0000
0000
0000
0000
0000
0330
0000
0000
0000
0001
0000
0000
0000
0000
0000
0000
0000
0000
0000
0000
0000
1000
0000
0000
0000
0000
0000
0000
0000
0000
0000
0000
0000
0000
0000
0000
0000
1000
0000
0000
0000
0000
0000
0000
0000
0001
0000
0000
0000
0000
0000
0020
0000
0000
0000
0000
0000
0000
0000
0000
0000
0000
0000
0030
0000
0000
0000
0000
0000
,
0200
0000
0000
0000
0000
0000
0300
0000
0000
1020
0000
0000
0000
0000
0000
0030
0000
0000
0200
0000
0000
0000
0000
0000
2300
0000
0000
0000
0000
0000
0000
0000
0020
0000
0000
0000
0000
0000
0030
0000
0000
0000
0201
0000
3000
0000
0000
0000
,
0302
0000
0000
0000
0000
0000
0000
0000
0000
0000
0000
0000
0000
0000
0000
0000
0000
0000
0000
0000
0000
0000
0000
0000
0000
0000
0000
0000
0000
0000
0003
0000
0000
0000
0000
0000
0020
0000
0000
0000
0000
0000
0000
0000
0000
0000
0000
0000
0000
0000
0000
0000
0000
0000
0000
0000
0000
0000
0000
0000
0000
0000
0000
0000
0000
0000
2001
0000
0000
0000
0000
0000
0030
0000
0000
0000
0000
0000
0000
0000
0000
0000
0000
0000
3000
0000
0000
0000
0000
0000
0000
0000
0000
0000
0000
0000
0000
0000
0000
0000
0000
0000
0000
0000
0000
0000
0000
0000
0000
0000
0000
0000
0000
0000
0000
0000
0000
0000
0000
0000
0000
0000
0000
0000
0000
0000
0000
0000
1001
0000
0000
0000
0000
0000
0000
0000
0000
0000
0000
0000
0000
0000
0000
0000
1010
0000
0000
0000
0000
0000
0000
0000
0000
0000
0000
0000
0000
0000
0000
0000
0000
0000
0000
0000
0000
0000
0000
0000
0000
0000
0000
0000
0000
0000
0000
0000
0000
0000
0000
0000
0000
0000
0000
0000
0000
0000
0000
0000
0000
0000
0000
0000
,
0220
0000
0330
0000
1010
0100
0010
0001
1000
0100
0010
0001
0010
0100
1000
0001
,
0010
0000
0000
0100
0000
0000
1001
0000
0000
0010
0000
0000
0100
0000
0000
0001
1000
0000
0100
0000
0000
0010
0000
0000
1000
0000
0000
0010
0000
0000
0100
0000
0000
0001
0000
0000
0100
0000
0000
0010
0000
0000
1000
0000
0000
0100
0000
0000
,
0010
0000
0000
0100
0000
0000
1000
0000
0000
0001
0000
0000
0010
0000
0000
0100
0000
0000
0010
0000
0000
0001
0000
0000
1000
0000
0000
0001
0110
0000
1000
0000
0000
0100
0000
0000
1010
0000
0000
0001
0000
0000
1000
0000
0000
0010
0000
0000
,
1000
0000
0000
0100
0000
0000
0010
0000
0000
0100
0000
0000
0010
0000
0000
0001
1000
0000
0010
0000
0000
0100
0000
0000
0010
0000
0000
0100
0011
0000
0010
0000
0000
1000
0000
0000
0010
0000
0000
0001
0000
0000
0010
0000
0000
0100
0000
0000
,
1010
0000
0000
0001
0000
0000
0100
0000
0000
0001
0000
0000
0100
0000
0000
1000
0000
0000
0100
0000
0001
0010
0000
0000
0100
0000
0000
0001
0000
0000
0100
0000
0000
0010
0000
0000
0100
0000
0000
1000
0000
0000
0100
0000
0000
0010
0000
0000
,
0100
0000
0000
0001
0000
0000
1000
0000
0000
0010
0000
0000
0001
0000
0000
0010
1000
0000
0100
0000
0000
0010
0000
0000
0001
0000
0000
0010
0100
0000
1000
0000
0000
0010
0000
0000
1000
0000
0000
0100
0000
0000
1000
0000
0010
0001
0000
0000
,
1000
0000
0000
0100
0000
0000
0010
0000
1000
0100
0000
0000
0220
0000
0000
0000
0001
0000
0000
0000
0000
0000
0000
0000
1001
0000
0000
0000
0000
0000
0000
0000
0000
0330
0000
0000
1010
0000
0000
0100
0000
0000
0010
0000
0000
0001
0000
0000
,
0100
0010
1000
0100
0010
0001
0100
0010
1000
0010
0100
0001
0010
0100
1000
0001
,
0010
0100
1000
0100
0010
0001
1000
0100
0010
0001
1000
0010
0100
0001
1000
0010
,
0100
0001
1000
0000
0100
0001
1010
0000
0100
1001
0010
0001
1000
0100
0010
0100
,
0010
0100
0001
0100
1000
0100
0001
0100
0010
0100
0001
0100
1000
0001
1000
0100
,
0001
0010
1000
0001
1000
0010
1000
0100
1000
0010
0100
0001
1000
0001
0100
0010
,
1000
0001
0010
0001
0010
0010
1000
0100
0100
0001
0010
0100
1000
0100
0001
0010
,
1000
0001
1000
0010
1000
0001
0100
0010
1000
0100
0010
0001
1001
0000
0100
0000
,
0110
0000
0001
0000
1010
0011
0100
0000
0101
0000
1000
0000
1001
0100
0010
0001
,
0010
1000
0010
1000
0010
0001
0010
0100
0010
1000
0100
1000
0001
0100
0010
1000
,
0100
1000
0001
1000
0010
1000
0001
1000
0010
0100
0001
1000
0001
0010
0001
1000
,
0010
0100
0001
0100
0010
0010
0001
1000
0001
0010
0100
1000
0100
0010
0001
0010
,
0100
1000
0100
0010
0001
0010
0100
1000
0010
0100
0001
0100
0010
1000
0010
0100
,
0001
0100
0010
1000
0010
0100
0001
0100
0010
1000
0001
0100
0001
0010
0010
1000
,
0001
0100
0001
0010
0001
0010
0001
1000
0001
0100
0010
0001
1000
0100
0001
0100
,
1000
0001
0010
0100
0001
0100
0001
0100
1000
0100
0001
0010
1100
0000
0100
0000
,
0010
0000
0001
0000
0100
0000
0010
0000
0001
0000
1000
0000
1200
0000
0000
0320
,
0000
0000
0000
0030
0002
0000
0000
0000
0023
0000
0000
0000
0030
0000
1002
0000
0000
0000
0000
0023
0000
0000
0000
0000
0230
0000
0000
0000
0000
0000
0320
0000
,
0000
0000
0030
1002
0000
0000
0000
0000
2000
0000
0000
0000
0000
0000
0000
0003
0000
0000
0000
3000
0001
0000
0002
0000
0200
0000
0000
0000
0000
0000
2003
0300
,
0000
0000
0000
0000
0000
0000
0020
0000
3000
0000
0000
0000
0000
0000
0030
0000
0220
0000
0000
0000
0000
0000
0000
0000
0000
0000
0000
0000
0000
0000
0000
0000
0000
0000
0000
0000
0000
0000
0000
0000
0000
0000
0000
0000
0330
0000
0000
0000
2002
0000
0000
0000
0110
0000
0000
0000
0000
0000
0000
0000
0000
0000
0000
3003
,
0101
0010
0100
1000
0010
0100
0001
0100
0011
1000
0001
0010
0100
1000
0100
0010
,
0101
0010
0100
1000
0100
0010
0001
0010
0011
0100
0010
1000
0100
0010
0001
1000
,
1010
0100
0001
0100
1000
0100
0010
0100
1010
0100
0001
0100
1000
0100
0010
1000
,
0110
0100
0010
1000
0010
0001
0010
0001
1010
1000
0010
0001
0010
0100
1000
0100
,
1100
0010
0100
0001
0010
0100
0010
0001
0110
0100
1000
0100
0010
0100
1000
0100
,
1001
1000
0010
1000
0100
1000
0001
1000
0110
1000
0001
1000
0010
1000
0001
1000
,
0110
0100
0001
0010
0100
1000
0100
0010
0101
0010
0100
0010
0001
0010
0100
1000
,
0101
0010
0100
1000
0001
1000
0001
1000
0011
0100
0001
0100
0010
1000
0100
0010
,
1001
0100
0001
1000
0001
0010
0001
0100
1001
0010
0100
1000
0100
0010
0001
1000
,
0110
1000
0001
1000
0100
1000
0010
1000
0101
1000
0100
0010
0001
0010
0100
1000
,
1010
0100
0001
0100
1000
0100
0001
0100
1100
1000
0001
0100
0001
0010
0001
1000
,
0101
0010
0100
1000
0100
0010
0001
0010
0011
0100
0010
1000
0001
0010
0100
1000
,
1100
1000
0100
0010
0001
0010
0100
1000
0101
0010
0100
1000
0001
0010
0100
0010
,
1001
0100
0001
0010
0001
1000
0001
0010
0101
1000
0001
0100
0001
0010
0100
1000
,
2002
0000
0000
0000
0000
0000
0000
0000
0000
0000
0000
0000
0000
0000
3000
0000
2020
0000
0003
0000
0000
0000
0002
0000
3030
0000
0000
0000
0020
0003
0030
0000
,
0011
0100
0010
0100
0010
0100
0010
1000
0010
0100
0001
1000
0012
0100
0010
0100
,
1003
0100
0001
0100
0010
1000
0010
0001
0010
0100
1000
0001
1000
0001
1000
0010
,
1000
0100
1000
0001
1000
0001
0100
0001
0010
0001
1000
0001
0100
0001
0100
0010
,
0100
1000
0100
0001
0010
0001
1000
0001
0100
0001
1000
0001
1000
0100
1000
0010
,
0001
0010
1000
0010
0100
0010
1000
0001
1000
0010
1000
0100
1000
0010
0100
0001
,
1000
0001
0100
0001
1000
0001
0010
0100
0010
0001
1000
0001
0010
0001
0010
0100
,
2000
0000
0000
0000
3101
0000
1000
0000
0000
0000
0001
0010
0001
0000
0020
0000
,
0002
0000
0030
0000
1103
0010
0100
0001
0100
0010
1000
0100
0010
0001
0100
0010
,
1000
0100
1000
0010
1000
0100
0001
0100
0010
0100
1000
0001
1000
0010
1000
0100
,
1000
0001
0010
0100
0010
0001
0010
0100
0010
1000
0010
0001
0100
0001
1000
0001
,
0010
0100
0001
0100
0010
1000
0010
0100
0010
0001
0010
1000
0010
0001
0010
0100
,
1000
0100
1000
0100
1000
0001
0010
0001
0100
0010
1000
0001
0010
0001
1000
0001
,
0100
1000
0100
0010
0102
1000
0100
0000
0100
0000
0010
0000
1003
0001
0100
0001
,
1000
0100
1000
0010
1000
0001
1000
0010
1000
0001
1000
0010
0001
0010
0100
0010
,
2001
0000
0000
0000
3001
0000
0110
0000
1000
0001
1000
0001
1000
0000
0011
0000
,
1010
0000
0000
0000
0011
0100
1000
0100
0010
0001
0010
0100
1000
0010
0100
0001
,
0022
0000
0000
0000
0000
0000
0000
0000
0000
0000
0000
0000
0000
0000
0000
0033
0220
0000
0000
0000
0000
0000
0000
0000
0000
0000
0000
0000
0000
0000
0330
0000
,
0220
0000
0000
0330
0022
0000
0000
0033
,
2020
0000
0000
3030
0220
0000
0000
0330
,
2020
0000
0000
0000
0000
3030
0011
0000
0220
0000
0000
0000
0000
0000
0000
0000
,
0000
0330
0000
0000
0020
0000
0000
0000
1200
0000
0000
0000
0000
2030
0000
0000
,
0320
3000
0000
0000
2030
0000
0000
0000
3200
0000
0000
0000
0000
0000
0000
0300
,
2002
0000
0000
0000
0000
0000
0000
3003
0110
0000
0000
0000
0000
0000
0000
0000
,
0101
0000
1100
0000
,
1001
0000
0220
0000
,
0330
1010
2020
0000
,
0000
3030
1001
0000
,
1001
0000
0101
0000
,
1010
0000
0202
0000
,
0000
0000
0000
0000
0000
0000
0000
0000
1300
0000
0000
1000
0100
0000
0000
0100
,
0010
0000
0000
0010
0100
0000
0000
0010
0100
0003
0000
0001
1010
0000
0000
0100
,
1001
0000
0000
0010
1100
0000
0000
0001
0011
0000
0000
0100
1010
0000
0000
0010
,
1001
0000
0000
0010
0110
0000
0000
0001
1010
0000
0000
0001
0110
0000
0000
1000
,
0101
0000
0000
1000
0110
0000
0000
0010
2001
0000
0000
3001
1020
0000
0030
0001
,
1000
0010
0100
0001
0120
0000
0030
0100
2001
0000
3000
0010
1200
0000
0000
0301
,
0010
0100
1000
0010
0100
0000
1001
0000
2110
0000
0000
0100
3011
0000
0000
0101
,
1000
0010
0100
0001
0010
0100
0000
0100
1000
0010
0100
0001
0010
1000
0010
0001
,
0100
0010
1000
0010
1000
0000
1010
0000
1002
0000
0000
1003
0100
0010
1000
0100
,
2010
0000
0000
0000
3001
1100
1000
0100
0011
1002
0000
0000
0013
0001
0100
0001
,
0100
0000
0000
0010
0000
0000
1000
0000
0000
0010
0000
0000
1000
0000
0000
0010
0001
0000
1000
0000
0000
0100
0000
0000
0210
0000
0000
0000
0000
0000
0000
0000
1000
0310
0000
0000
0001
0000
0000
0100
0000
0000
0001
0000
0000
0010
0000
0000
,
1200
0000
0000
0000
0000
0000
0000
0000
0001
0000
0000
0000
1300
0000
0000
0010
0000
0000
1000
0000
0001
0010
0000
0000
0210
0000
0000
0000
0000
0000
0000
0000
1000
0301
0000
0000
0010
0000
0000
0001
0000
0000
0010
0000
0000
0100
0000
0000
,
1000
0000
0000
0010
0001
0000
0100
0000
0000
0010
0000
0000
1100
0000
0000
0001
0000
0000
0010
0000
0000
0100
0000
0000
1120
0000
0000
0000
0000
0000
0000
0000
0000
0000
0000
0000
1031
0000
0000
0100
0000
0000
1000
0000
0000
0010
0000
0000
,
0101
1000
0001
0100
0011
0001
0010
0100
1100
0100
1000
0001
1010
0100
0010
0001
,
0110
0000
1000
0000
0100
0000
0100
0010
0101
0000
1000
0000
0001
0000
0010
1000
0011
0000
0100
0000
1000
0000
0001
0010
1100
0000
0010
0000
0001
0000
0100
0010
,
1010
0000
0010
0000
0100
0000
0001
0100
0110
0000
1000
0000
1000
0000
0001
0010
0101
0000
0100
0000
0010
0000
1000
0001
0011
0000
0100
0000
0001
0000
0010
1000
,
2020
0000
0000
0000
0000
0000
0000
0000
0000
0000
0000
0000
0032
0000
0000
3000
0000
0000
2000
0000
0000
0003
0000
0000
0200
0000
0000
3000
0000
0000
0000
0000
0000
0000
0000
0000
1010
0000
0000
0000
0000
0000
0001
0000
0300
1000
0000
0000
,
1001
0000
0100
0001
0110
0000
0001
0010
0101
0000
1000
0010
1010
0000
0010
0100
,
0110
0000
1100
0010
0100
0001
0010
0100
1000
0010
0100
0001
1010
0000
0001
0100
,
0011
0000
0010
0100
1001
0000
0010
1000
1010
0000
0010
0100
0011
0000
0001
0100
,
0001
0000
0000
0000
0000
0000
0000
0000
0000
0000
0000
0000
0100
0000
0000
0000
0000
0000
0000
0000
0000
0000
0000
0000
0001
0000
0000
0000
0000
0000
0000
0000
0000
0000
0000
0000
0010
0000
0000
0000
0000
0000
0000
0000
0000
0000
0000
0000
1100
0000
0000
0000
0000
0000
0000
0000
0000
0000
0000
0000
0000
0000
0000
0000
0000
0000
0000
0000
0000
0000
0000
0000
1100
0000
0000
0000
0000
0000
0000
0000
0000
0000
0000
0000
0000
0000
0000
0000
0000
0000
0000
0000
0000
0000
0000
0000
2200
0000
0000
0000
0000
0000
0000
0000
0000
0000
0000
0000
0000
0000
0000
0000
0000
0000
0000
0000
0000
0000
0000
0000
0000
0000
0000
0000
0000
0000
0000
0000
0000
0000
0000
0000
3300
0000
0000
0000
0000
0000
0000
0000
0000
0000
0000
0000
1100
0000
0000
0000
0000
0000
0000
0000
0010
0000
0000
0000
0000
0000
0000
0000
0001
0000
0000
0000
0000
0000
0000
0000
0010
0000
0000
0000
0000
0000
0000
0000
0100
0000
0000
0000
0000
0000
0000
0000
1000
0000
0001
0000
0000
0000
0000
0000
,
0100
0000
0000
0000
0000
0000
0000
0000
1000
0000
0000
0000
0000
0000
0000
0000
0010
0000
0000
0000
0000
0000
0000
0000
0100
0000
0000
0000
0000
0000
0000
0000
0001
0000
0000
0000
0000
0000
0000
0000
0010
0000
1000
0000
0000
0000
0000
0000
0001
0000
0000
0000
0000
0000
0000
0000
0010
0000
0000
0000
0000
0000
0000
0000
0100
0000
0000
0000
0000
0000
0000
0000
1000
0000
0000
0000
0000
0000
0000
0000
0100
0000
0000
0000
0000
0000
0000
0000
0010
0000
0000
0000
0000
0000
0000
0000
0001
0000
0000
0000
0000
0000
0000
0000
1000
0000
0000
0000
0000
0000
0000
0000
0100
0000
0000
0000
0000
0000
0000
0000
0010
0000
0000
0000
0000
0000
1000
0000
0001
0000
0000
0000
0000
0000
0000
0000
0010
0000
0000
0000
0000
0000
0000
0000
0100
0000
0000
0000
0000
0000
0000
0000
1000
0000
0000
0000
0000
0000
0000
0000
0001
0000
0000
0000
0000
0000
0000
0000
0010
0000
0000
0000
0000
0000
0000
0000
0100
0000
0000
0000
0000
0000
0000
0000
1000
0000
0000
0000
0000
0000
0000
0000
,
0100
0000
0000
0000
0000
0000
0001
0000
0010
0000
0000
0000
0000
0000
0000
0000
0100
0000
0000
0000
0000
0000
0000
0000
1000
0000
0000
0000
0000
0000
0000
0000
0100
0000
0000
0000
0000
0000
0000
0000
0010
0000
0000
0000
0000
0000
0000
0000
0001
0000
0000
0000
0000
0000
0000
0000
0100
0000
0000
0000
0000
0000
0000
0000
0010
0000
0000
0000
0000
0000
0000
0000
1001
0000
0000
0000
0000
0000
0001
0000
0100
0000
0000
0000
0000
0000
0000
0000
0010
0000
0000
0000
0000
0000
0000
0000
0100
0000
0000
0000
0000
0000
0000
0000
1000
0000
0000
0000
0000
0000
0000
0000
0001
0000
0000
0000
0000
0000
0000
0000
0010
0000
0000
0000
0000
0000
0000
0000
0100
0000
0000
0000
0000
0000
0000
0000
0010
0000
0000
0000
0000
0000
0000
0000
0001
0000
0000
0000
0000
0000
0000
0000
1000
0000
0000
0000
0000
0000
0000
0000
0001
0000
0000
0000
0000
0000
0000
0000
0100
0000
0000
0000
0000
0000
0000
0000
0001
0000
0000
0000
0000
0000
0000
0000
0010
0000
0000
0000
0000
0000
0000
0000
,
0001
0000
0000
0000
0000
0000
0000
0000
1000
0000
0000
0000
0000
0000
0000
0000
0100
0000
0000
0000
0000
0000
0000
0000
1000
0000
0000
0000
0000
0000
0001
0000
0010
0000
0000
0000
0000
0000
0000
0000
1000
0000
0000
0000
0000
0000
0000
0000
0010
0000
0000
0000
0000
0000
0000
0000
1000
0000
0000
0000
0000
0000
0000
0000
0010
0000
0000
0000
0000
0000
0000
0000
0100
0000
0000
0000
0000
0000
0000
0000
0001
0000
0000
0000
0000
0000
0000
0000
0010
0000
1000
0000
0000
0000
0000
0000
0100
0000
0000
0000
0000
0000
0000
0000
0010
0000
0000
0000
0000
0000
0000
0000
0001
0000
0000
0000
0000
0000
0000
0000
0100
0000
0000
0000
0000
0000
0000
0000
0010
0000
0000
0000
0000
0000
0000
0000
1000
0000
0000
0000
0000
0000
0000
0000
0001
0000
0000
0000
0000
0000
0000
0000
1000
0000
0000
0000
0000
0000
0000
0000
0100
0000
0000
0000
0000
0000
0000
0000
0010
0000
0000
0000
0000
0000
0000
0000
0000
0000
0000
0000
0002
0000
0000
0000
0000
0000
0003
0000
0000
0000
0000
0000
,
0000
0000
0000
0000
0000
0000
0010
0000
0000
0100
0000
0000
2000
0000
0000
0000
0000
0000
0001
0000
0000
0000
0000
0000
0000
0000
0000
0000
0000
0000
3000
0000
0000
0000
0000
0000
1000
0000
0100
0000
0010
0000
0001
0000
0100
0000
0010
0000
,
1000
0000
0000
0000
0000
0000
0000
0000
0100
0000
0000
0000
0000
0000
0000
0000
0010
0000
0000
0000
0000
0000
0000
0000
0001
0000
0000
0000
0000
0000
0000
0000
0010
0000
0000
0000
0000
0000
0000
0000
0100
0000
0000
0000
0000
0000
0000
0000
1000
0000
0000
0000
0000
0000
0000
0000
0001
0000
0000
0000
0010
0000
0000
0000
1000
0000
0000
0000
0000
0000
0000
0000
0001
0000
0000
0000
0000
0000
0000
0000
0100
0000
0000
0000
0000
0000
0000
0000
0010
0000
0000
0000
0000
0000
0000
0000
1000
0000
0000
0000
0000
0000
0000
0000
0100
0000
0000
0000
0000
0000
0000
0000
0010
0000
0000
0000
0000
0000
0000
0000
0001
0000
0000
0000
0000
0000
0000
0000
1000
0000
0000
0000
0020
0000
0000
0000
0001
0000
0030
0000
0000
0000
0000
0000
1000
0000
0000
0000
0000
0000
0000
0000
0100
0000
0000
0000
0000
0000
0000
0000
0010
0000
0000
0000
0000
0000
0000
0000
0001
0000
0000
0000
0000
0000
0000
0000
0010
0000
0000
0000
0000
0000
0000
0000
0100
0000
0000
0000
0000
0000
0000
0000
,
0010
0000
0000
0000
0000
0000
0000
0000
0001
0000
0000
0000
0000
0000
0000
0000
1000
0000
0000
0000
0000
0000
0000
0000
0100
0000
0000
0000
0000
0000
0000
0000
0010
0000
0000
0000
0000
0000
0000
0000
0100
0000
0000
0000
0000
0000
0000
0000
1000
0000
0000
0000
0000
0000
0020
0000
0001
0000
0000
0000
0030
0000
0000
0000
1000
0000
0000
0000
0000
0000
0000
0000
0001
0000
0000
0000
0000
0000
0000
0000
1000
0000
0000
0000
0000
0000
0000
0000
0100
0000
0000
0000
0000
0000
0000
0000
0010
0000
0000
0000
0000
0000
0000
0000
0001
0000
0000
0000
0000
0000
0000
0000
0010
0000
0000
0000
0000
0000
0000
0000
0100
0000
0000
0000
0000
0000
0000
0000
1000
0000
0000
0000
0000
0000
0000
0000
0100
0000
0002
0000
0000
0000
0000
0000
1003
0000
0000
0000
0000
0000
0000
0000
0010
0000
0000
0000
0000
0000
0000
0000
0100
0000
0000
0000
0000
0000
0000
0000
0001
0000
0000
0000
0000
0000
0000
0000
0100
0000
0000
0000
0000
0000
0000
0000
0010
0000
0000
0000
0000
0000
0000
0000
,
1000
0000
0000
0000
0000
0000
0000
0000
0100
0000
0000
0000
0000
0000
0000
0000
0010
0000
0000
0000
0000
0000
0000
0000
0001
0000
0000
0000
0000
0000
0000
0000
0010
0000
0000
0000
0200
0000
0000
0000
1000
0000
0300
0000
0000
0000
0000
0000
0010
0000
0000
0000
0000
0000
0200
0000
0001
0000
0000
0000
0300
0000
0000
0000
0010
0000
0000
0000
0000
0000
0000
0000
1000
0000
0000
0000
0000
0000
0000
0000
0010
0000
0000
0000
0000
0000
0000
0000
0100
0000
0000
0000
0000
0000
0000
0000
0001
0000
0000
0000
0000
0000
0000
0000
0100
0000
0000
0000
0000
0000
0000
0000
0010
0000
0000
0000
0000
0000
0000
0000
1001
0000
0000
0000
0000
0000
0000
0000
0000
0000
0000
0000
0200
0000
0000
0000
0000
0000
0300
0000
0000
0000
0000
0000
1001
0000
0000
0000
0000
0000
0000
0000
0000
0000
0000
0000
0000
0000
0000
0000
0000
0000
0000
0000
0000
0000
0000
0000
1020
0000
0000
0000
0000
0000
0030
0000
0000
0000
0000
0000
0000
0000
0000
0000
0000
0000
0000
0000
0000
0000
0000
0000
,
1100
0000
0000
0000
0001
0000
0000
0100
0011
0000
0000
0000
1000
0000
0000
0000
1110
0000
0000
0000
0010
0000
0000
0000
1001
0000
0100
0000
0010
0000
0100
0000
,
1010
0000
0001
0000
0010
0000
1000
0000
0010
0001
0100
0000
0010
0000
0100
0000
1000
0000
0100
0000
0001
0000
0100
0000
1010
0000
0100
0000
0001
0000
0100
0000
,
0001
1010
0001
1000
0100
1000
0010
1000
0100
1000
0001
0100
0001
0000
0001
1000
,
0001
0000
0100
0010
0001
0000
0100
0001
1000
0000
0100
0010
0100
0010
0001
0010
,
0001
1000
0100
0010
0001
0100
0020
0000
0000
0000
0030
0000
1000
0100
0010
0001
,
0100
0010
1000
0001
0100
0010
1000
0100
0010
0001
1000
0010
0100
0001
0100
0010
,
1000
0001
0010
0100
1000
0100
0010
0001
0100
0010
1000
0100
0010
0100
1000
0001
,
0010
0100
0010
0001
1000
0100
1000
0001
1000
0100
0010
0001
0100
0010
1000
0001
,
1000
0000
0010
0000
0100
0000
0001
0000
1000
0000
0100
0000
0010
0000
0001
0000
1000
0100
0010
0001
0010
0100
1000
0000
1002
0000
0000
0000
0000
0000
0020
0003
,
0000
0000
0000
0200
0030
0000
0000
0000
0002
0000
0000
0300
0000
0000
0020
0000
0003
0000
0000
0230
0000
0000
0000
0002
0000
0300
0000
0000
2000
0000
0003
0000
,
0000
0000
0200
0000
3000
0000
0000
2000
0000
0000
0000
0000
0000
0000
0000
0000
0300
3000
0000
0000
0110
0000
0000
0000
0002
0000
0000
0000
0000
0000
0200
0000
,
0000
0000
0003
2300
0000
0000
0000
0020
0000
0000
0000
0000
0000
0000
3000
0000
0000
0000
0000
0000
0000
0030
0000
0000
2002
0000
0000
0000
0000
0000
0000
0000
,
0000
0000
0200
0300
0000
0000
0000
0000
0000
0020
0000
0030
0000
0000
0000
0000
3003
0000
0000
0000
0000
0000
0000
0000
0011
0000
1000
0000
0001
0000
0010
0000
,
0100
0000
1010
0000
0100
0000
0010
0001
1100
0000
1000
0000
0010
0000
0100
1000
0001
0000
0010
0000
0001
0000
1000
0000
0011
0000
1000
0000
0001
0000
0100
0000
,
0001
0000
1000
0000
0010
0000
1000
0000
1010
0000
0001
0000
1000
0000
0100
0001
0010
0000
0100
0001
1000
0000
0100
0000
1100
0000
0001
0000
1010
0000
0001
0000
,
0100
0000
0001
0000
1010
0000
0001
0000
1100
0000
0001
0000
0010
1000
0001
0000
0100
0010
0001
0000
1000
0000
0100
0000
1010
0000
0001
0000
1000
0000
0110
0001
,
1000
0000
0010
0100
1010
0001
0110
0000
1001
0010
0101
0001
1010
0000
0100
0000
1000
0000
0001
0000
1100
0100
0011
0000
0101
0000
1000
0000
0001
0000
0010
0000
,
0100
1000
0100
0010
1001
0100
0010
1000
0100
0010
0001
0010
0110
0100
1000
0100
,
0001
0100
0010
0100
0101
0100
0010
0100
1000
0100
0010
0100
1001
0001
0010
0100
,
0001
0100
0001
1000
0011
1000
0001
1000
0010
1000
0001
0100
1001
1000
0001
0100
,
0010
0100
0010
0100
0011
0010
0100
1000
0100
0010
0001
1000
0110
0001
0010
0100
,
0010
1000
0010
0001
1010
0100
1000
0010
1000
0100
0010
0100
1001
0010
0010
0100
,
0001
0010
1000
0100
0011
0100
0001
0100
0010
1000
0001
0110
1100
0001
0010
0001
,
0100
0001
0010
0001
1100
0100
0010
0001
0010
1000
0010
0100
0110
1000
0001
0100
,
0001
1000
0010
1000
1010
0001
1000
0100
0010
1000
0001
0100
0101
0100
0001
1000
,
0010
1000
0001
0100
1001
1000
0001
0100
0010
1000
0001
1000
1010
0001
0010
1000
,
0010
0100
0010
1000
0011
0100
0010
0001
0010
1000
0001
0100
0220
0000
0000
0000
,
0000
0000
0000
0000
0000
0330
0000
0000
2201
0000
0000
0000
0000
0000
0002
0000
3000
0000
0000
0000
0023
0000
0000
0000
0330
0000
1000
0000
0100
0000
0010
0000
,
0001
0010
0100
1000
0010
0100
0001
0100
0010
1000
0100
0010
0100
1000
0100
0010
,
0001
0010
0100
0010
0001
0010
0100
1000
0010
0100
0001
1000
0010
0100
0001
0100
,
0010
0001
0010
1000
0010
0100
0010
1000
0010
0100
0001
1000
0010
0100
0001
0100
,
0020
1000
0001
1000
0031
1000
0100
1000
0100
0010
0100
0010
1000
0010
0001
0010
,
0001
0100
0001
1000
0001
0010
0001
0100
0001
0010
0100
1000
0010
0001
0010
0100
,
0010
1000
0001
1000
0100
0010
0001
1000
0010
0100
0001
0010
0100
1000
0100
0010
,
0001
0000
0000
0010
0000
0000
0100
0000
0000
1000
0000
0000
0100
0000
0000
0010
0000
0000
0001
0000
0000
0001
0000
0000
0010
0000
0000
0000
0100
0000
0000
0000
1000
0000
0000
0000
0010
0000
0000
0000
1000
0000
0000
0000
0001
0000
0000
0000
,
1000
0000
0000
0000
0000
0000
0000
0000
0000
0000
0000
0000
0000
0000
0000
0000
0010
0000
0000
0000
0000
0000
0000
0000
0000
0000
0000
0000
0000
0000
0000
0000
0100
0000
0000
0000
0000
0000
0000
0000
0000
0000
0000
0000
0000
0001
0000
0000
0000
0000
0000
0000
0000
0000
0000
0000
0000
0000
0000
0000
0000
0010
0000
0000
0000
0000
0000
0000
0000
0000
0000
0000
0000
0000
0000
0000
0000
0100
0000
0000
0000
0000
0000
0000
0000
0000
0000
0000
0000
0000
0000
0000
0000
0010
0000
0000
0000
0000
0000
0000
0000
0000
0000
0000
0000
0001
0000
0000
0000
0000
0000
0000
0000
0000
0000
0000
0000
0010
0000
0000
0000
0000
0000
0000
0000
0000
0000
0000
0000
0100
0000
0000
0000
0000
0000
0001
0000
0000
0000
0000
0000
1000
0000
0000
0000
0000
0000
0000
0000
0000
0000
0000
0000
0010
0000
0000
0000
0000
0000
0000
0000
0000
0000
0000
0000
1100
0000
0000
0000
0000
0000
0000
0000
0000
0100
0000
0000
0001
0000
0000
0000
0000
0000
0000
0000
0000
0000
0000
0000
0100
0000
0000
,
0000
0000
0000
0010
0000
0001
0000
1000
0000
0000
0000
0110
0000
0000
0000
0010
0100
0000
0000
0001
0000
0000
0000
1000
0000
0000
0000
0100
1000
0000
0000
0010
0000
0000
0000
0001
0010
0000
0000
0010
0000
0000
0000
0100
0000
0000
0000
1000
0000
0000
0000
0001
0000
0000
0000
0100
0000
0000
0000
0010
0000
0000
0000
1000
,
0000
0000
0000
0001
0000
0000
0000
0100
0000
0000
0000
0010
0000
0000
0000
1000
0000
0000
0000
0010
0000
0000
0000
0100
0000
0000
0000
0001
0000
0000
0000
1000
0000
0000
0000
0010
0000
0000
0000
0100
0000
0000
0000
0001
0000
0000
0000
0010
0000
0000
0000
0100
0000
0000
0000
1000
0000
0000
0000
0001
0000
0000
0000
0010
,
0000
0000
0000
0100
0000
0000
0000
0010
0000
0000
0000
0001
0000
0000
0000
1000
0000
0000
0000
0100
0000
0000
0000
0010
0000
0000
0000
0100
0000
0000
0000
1000
0000
0000
0000
0100
0000
0000
0000
0010
0000
0000
0000
0100
0000
0000
0000
1000
0000
0000
0000
0100
0000
0000
0000
0010
0000
0000
0000
0001
0000
0000
0000
0010
,
0000
0000
0000
0100
0000
0000
0000
0010
0000
0000
0000
0001
0000
0000
0000
0010
0000
0000
0000
0100
0000
0000
0000
0010
0000
0000
0000
0001
0000
0000
0000
1000
0000
0000
0000
0100
0000
0000
0000
1000
0000
0000
0000
0010
0000
0000
0000
1000
0000
0000
0000
0001
0000
0000
0000
0010
0000
0000
0000
0001
0000
0000
0000
0100
,
0000
0000
0000
0000
0000
0000
0000
0000
0000
0001
0000
0000
0000
0000
0000
0000
0000
0000
0000
0000
0000
1000
0000
0000
0000
0000
0000
0000
0000
0000
0000
0000
0000
0001
0000
0000
0000
0000
0000
0000
0000
0000
0000
0000
0000
0010
0000
0000
0000
0000
0000
0000
0000
0000
0000
0000
0000
0001
0000
0000
0000
0000
0000
0000
0000
0000
0000
0000
0000
0010
0000
0000
0000
0000
0000
0000
0000
0000
0000
0000
0000
0100
0000
0000
0000
0000
0000
0000
0000
0000
0000
0000
0000
0010
0000
0000
0000
0000
0000
0000
0000
0000
0000
0001
0000
0000
0000
0000
0000
0000
0000
0000
0000
0000
0000
0010
0000
0000
0000
0000
0000
0000
0000
0000
0000
0000
0000
0100
0000
0000
0000
0000
0000
0000
0000
0000
0000
0000
0000
0010
0000
0000
0000
0000
0000
0000
0000
0000
0000
0000
0000
0100
0000
0000
0000
0000
0000
0000
0000
0000
0000
0000
0000
1000
0000
0000
0000
0000
0000
0000
0000
0000
0000
0000
0000
0010
0000
0000
0000
0000
0000
0000
0000
0000
0000
0000
0000
1000
0000
0000
0000
0000
,
0000
0000
0000
0000
0000
0000
0000
0100
0000
0000
0000
0000
0000
0000
0000
0000
0000
0000
0000
1000
0000
0000
0000
0000
0000
0000
0000
0000
0000
0000
0000
0010
0000
0000
0000
0000
0000
0000
0000
0000
0000
0000
0000
0001
0000
0000
0000
0000
0000
0000
0000
0000
0000
0000
0000
0010
0000
0000
0000
0000
0000
0000
0000
0000
0000
0000
0000
0100
0000
0000
0000
0000
0000
0000
0000
0000
0000
0000
0000
0010
0000
0000
0000
0000
0000
0000
0000
0000
0000
0000
0000
1000
0000
0000
0000
0000
0000
0000
0000
0000
0000
0000
0000
0001
0000
0000
0000
0000
0000
0000
0000
0000
0000
0000
0000
0100
0000
0000
0000
0000
0000
0000
0000
0000
0000
0000
0000
1000
0000
0000
0000
0000
0000
0000
0000
0000
0000
0000
0000
0100
0000
0000
0000
0000
0000
0000
0000
0000
0000
0000
0000
0001
0000
0000
0000
0000
0000
0000
0000
0000
0000
0000
0000
0100
0000
0000
0000
0000
0000
0000
0000
0000
0000
0000
0000
0010
0000
0000
0000
0000
0000
0000
0000
0000
0000
0000
0000
1000
0000
0000
0000
0000
,
0000
0000
0000
0000
0000
0000
0000
0100
0000
0000
0000
0000
0000
0000
0000
0000
0000
0000
0000
0010
0000
0000
0000
0000
0000
0000
0000
0000
0000
0000
0000
0001
0000
0000
0000
0000
0000
0000
0000
0000
0000
0000
0000
0010
0000
0000
0000
0000
0000
0000
0000
0000
0000
0000
0000
0100
0000
0000
0000
0000
0000
0000
0000
0000
0000
0000
0000
1000
0000
0000
0000
0000
0000
0000
0000
0000
0000
0000
0000
0010
0000
0000
0000
0000
0000
0000
0000
0000
0000
0000
0000
0100
0000
0000
0000
0000
0000
0000
0000
0000
0000
0000
0000
0001
0000
0000
0000
0000
0000
0000
0000
0000
0000
0000
0000
1000
0000
0000
0000
0000
0000
0000
0000
0000
0000
0000
0000
0010
0000
0000
0000
0000
0000
0000
0000
0000
0000
0000
0000
0100
0000
0000
0000
0000
0000
0000
0000
0000
0000
0000
0000
0001
0000
0000
0000
0000
0000
0000
0000
0000
0000
0000
0000
0010
0000
0000
0000
0000
0000
0000
0000
0000
0000
0000
0000
0100
0000
0000
0000
0000
0000
0000
0000
0000
0000
0000
0000
1000
0000
0000
0000
0000
,
0000
0000
0000
0000
0000
0000
0000
0100
0000
0000
0000
0000
0000
0000
0000
0000
0000
0000
0000
0010
0000
0000
0000
0000
0000
0000
0000
0000
0000
0000
0000
0100
0000
0000
0000
0000
0000
0000
0000
0000
0000
0000
0000
1000
0000
0000
0000
0000
0000
0000
0000
0000
0000
0000
0000
0100
0000
0000
0000
0000
0000
0000
0000
0000
0000
0000
0000
0010
0000
0000
0000
0000
0000
0000
0000
0000
0000
0000
0000
0001
0000
0000
0000
0000
0000
0000
0000
0000
0000
0000
0000
0010
0000
0000
0000
0000
0000
0000
0000
0000
0000
0000
0000
0100
0000
0000
0000
0000
0000
0000
0000
0000
0000
0000
0000
0010
0000
0000
0000
0000
0000
0000
0000
0000
0000
0000
0000
0001
0000
0000
0000
0000
0000
0000
0000
0000
0000
0000
0000
1000
0000
0000
0000
0000
0000
0000
0000
0000
0000
0000
0000
0000
0000
0000
0000
0001
0000
0000
0000
0000
0000
0000
0000
0000
0000
0000
0000
0000
0000
0000
0000
1000
0000
0000
0000
0000
0000
0000
0000
0000
0000
0000
0000
0000
0000
0000
0000
0100
0000
0000
0000
0000
,
0000
0000
0000
0000
0000
0000
0000
0000
0000
0000
0000
0010
0000
0000
0000
0000
0000
0000
0000
0000
0000
0000
0000
0000
0000
0000
0000
0001
0000
0000
0000
0000
0000
0000
0000
0000
0000
0000
0000
0000
0000
0000
0000
0100
0000
0000
0000
0000
0000
0000
0000
0000
0000
0000
0000
0000
0000
0000
0000
0010
0000
0000
0000
0000
0000
0000
0000
0000
0000
0000
0000
0000
0000
0000
0000
1000
0000
0000
0000
0000
0000
0000
0000
0000
0000
0000
0000
0000
0000
0000
0000
0010
0000
0000
0000
0000
0000
0000
0000
0000
0000
0000
0000
0000
0000
0000
0000
0100
0000
0000
0000
0000
0000
0000
0000
0000
0000
0000
0000
0000
0000
0000
0000
0001
0000
0000
0000
0000
0000
0000
0000
0000
0000
0000
0000
0000
0000
0000
0000
0100
0000
0000
0000
0000
0000
0000
0000
0000
0000
0000
0000
0000
0000
0000
0000
0001
0000
0000
0000
0000
0000
0000
0000
0000
0000
0000
0000
0000
0000
0000
0000
0010
0000
0000
0000
0000
0000
0000
0000
0000
0000
0000
0000
0000
0000
0000
0000
0001
0000
0000
0000
0000
,
0000
0000
0000
0000
0000
0000
0000
0000
0000
0000
0000
0010
0000
0000
0000
0000
0000
0000
0000
0000
0000
0000
0000
0000
0000
0000
0000
0001
0000
0000
0000
0000
0000
0000
0000
0000
0000
0000
0000
0000
0000
0000
0000
0010
0000
0000
0000
0000
0000
0000
0000
0000
0000
0000
0000
0000
0000
0000
0000
0100
0000
0000
0000
0000
0000
0000
0000
0000
0000
0000
0000
0000
0000
0000
0000
0010
0000
0000
0000
0000
0000
0000
0000
0000
0000
0000
0000
0000
0000
0000
0000
0100
0000
0000
0000
0000
0000
0000
0000
0000
0000
0000
0000
0000
0000
0000
0000
1000
0000
0000
0000
0000
0000
0000
0000
0000
0000
0000
0000
0000
0000
0000
0000
0010
0000
0000
0000
0000
0000
0000
0000
0000
0000
0000
0000
0000
0000
0000
0000
1000
0000
0000
0000
0000
0000
0000
0000
0000
0000
0000
0000
0000
0000
0000
0000
0010
0000
0000
0000
0000
0000
0000
0000
0000
0000
0000
0000
0000
0000
0000
1000
0000
0000
0000
0000
0000
0000
0000
0000
0000
0000
0000
0000
0000
0000
0000
0010
0000
0000
0000
0000
0000
,
0000
0000
0000
0000
0000
0000
0000
0000
0000
0000
0100
0000
0000
0000
0000
0000
0000
0000
0000
0000
0000
0000
0000
0000
0000
0000
0010
0000
0000
0000
0000
0000
0000
0000
0000
0000
0000
0000
0000
0000
0000
0000
0100
0000
0000
0000
0000
0000
0000
0000
0000
0000
0000
0000
0000
0000
0000
0000
0010
0000
0000
0000
0000
0000
0000
0000
0000
0000
0000
0000
0000
0000
0000
0000
0100
0000
0000
0000
0000
0000
0000
0000
0000
0000
0000
0000
0000
0000
0000
0000
0001
0000
0000
0000
0000
0000
0000
0000
0000
0000
0000
0000
0000
0000
0000
0000
0010
0000
0000
0000
0000
0000
0000
0000
0000
0000
0000
0000
0000
0000
0000
0000
0001
0000
0000
0000
0000
0000
0000
0000
0000
0000
0000
0000
0000
0000
0000
0000
0010
0000
0000
0000
0000
0000
0000
0000
0000
0000
0000
0000
0000
0000
0000
0000
0001
0000
0000
0000
0000
0000
0000
0000
0000
0000
0000
0000
0000
0000
0000
0000
0010
0000
0000
0000
0000
0000
0000
0000
0000
0000
0000
0000
0000
0000
0000
0000
0100
0000
0000
0000
0000
0000
,
0000
0000
0000
0000
0000
0000
0000
0000
0000
0000
0010
0000
0000
0000
0000
0000
0000
0000
0000
0000
0000
0000
0000
0000
0000
0000
0100
0000
0000
0000
0000
0000
0000
0000
0000
0000
0000
0000
0000
0000
0000
0000
1000
0000
0000
0000
0000
0000
0000
0000
0000
0000
0000
0000
0000
0000
0000
0000
0010
0000
0000
0000
0000
0000
0000
0000
0000
0000
0000
0000
0000
0000
0000
0000
0100
0000
0000
0000
0000
0000
0000
0000
0000
0000
0000
0000
0000
0000
0000
0000
0010
0000
0000
0000
0000
0000
0000
0000
0000
0000
0000
0000
0000
0000
0000
0000
0001
0000
0000
0000
0000
0000
0000
0000
0000
0000
0000
0000
0000
0000
0000
0000
0010
0000
0000
0000
0000
0000
0000
0000
0000
0000
0000
0000
0000
0000
0000
0000
1000
0000
0000
0000
0000
0000
0000
0000
0000
0000
0000
0000
0000
0000
0000
0000
0010
0000
0000
0000
0000
0000
0000
0000
0000
0000
0000
0000
0000
0000
0000
1000
0000
0000
0000
0000
0000
0000
0000
0000
0000
0000
0000
0000
0000
0000
0000
0100
0000
0000
0000
0000
0000
0000
,
0000
0000
0000
0000
0000
0000
0000
0000
0000
0010
0000
0000
0000
0000
0000
0000
0000
0000
0000
0000
0000
0000
0000
0000
0000
1000
0000
0000
0000
0000
0000
0000
0000
0000
0000
0000
0000
0000
0000
0000
0000
0010
0000
0000
0000
0000
0000
0000
0000
0000
0000
0000
0000
0000
0000
0000
0000
0001
0000
0000
0000
0000
0000
0000
0000
0000
0000
0000
0000
0000
0000
0000
0000
0100
0000
0000
0000
0000
0000
0000
0000
0000
0000
0000
0000
0000
0000
0000
0000
0001
0000
0000
0000
0000
0000
0000
0000
0000
0000
0000
0000
0000
0000
0000
0000
0100
0000
0000
0000
0000
0000
0000
0000
0000
0000
0000
0000
0000
0000
0000
0000
0001
0000
0000
0000
0000
0000
0000
0000
0000
0000
0000
0000
0000
0000
0000
0000
0010
0000
0000
0000
0000
0000
0000
0000
0000
0000
0000
0000
0000
0000
0000
0000
0001
0000
0000
0000
0000
0000
0000
0000
0000
0000
0000
0000
0000
0000
0000
0000
0010
0000
0000
0000
0000
0000
0000
0000
0000
0000
0000
0000
0000
0000
0000
0000
0100
0000
0000
0000
0000
0000
0000
,
0000
0000
0000
0000
0000
0000
0000
0000
0000
1000
0000
0000
0000
0000
0000
0000
0000
0000
0000
0000
0000
0000
0000
0000
0000
0010
0000
0000
0000
0000
0000
0000
0000
0000
0000
0000
0000
0000
0000
0000
0000
0100
0000
0000
0000
0000
0000
0000
0000
0000
0000
0000
0000
0000
0000
0000
0000
0010
0000
0000
0000
0000
0000
0000
0000
0000
0000
0000
0000
0000
0000
0000
0000
1000
0000
0000
0000
0000
0000
0000
0000
0000
0000
0000
0000
0000
0000
0000
0000
0100
0000
0000
0000
0000
0000
0000
0000
0000
0000
0000
0000
0000
0000
0000
0000
0010
0000
0000
0000
0000
0000
0000
0000
0000
0000
0000
0000
0000
0000
0000
0000
0100
0000
0000
0000
0000
0000
0000
0000
0000
0000
0000
0000
0000
0000
0000
0000
1000
0000
0000
0000
0000
0000
0000
0000
0000
0000
0000
0000
0000
0000
0000
0000
0001
0000
0000
0000
0000
0000
0000
0000
0000
0000
0000
0000
0000
0000
0000
0000
0010
0000
0000
0000
0000
0000
0000
0000
0000
0000
0000
0000
0000
0000
0000
0000
0100
0000
0000
0000
0000
0000
0000
,
0000
0000
0000
0000
0000
0000
0000
0000
0000
0001
0000
0000
0000
0000
0000
0000
0000
0000
0000
0000
0000
0000
0000
0000
0000
0010
0000
0000
0000
0000
0000
0000
0000
0000
0000
0000
0000
0000
0000
0000
0000
0100
0000
0000
0000
0000
0000
0000
0000
0000
0000
0000
0000
0000
0000
0000
0000
1000
0000
0000
0000
0000
0000
0000
0000
0000
0000
0000
0000
0000
0000
0000
0000
0010
0000
0000
0000
0000
0000
0000
0000
0000
0000
0000
0000
0000
0000
0000
0000
0100
0000
0000
0000
0000
0000
0000
0000
0000
0000
0000
0000
0000
0000
0000
0000
0001
0000
0000
0000
0000
0000
0000
0000
0000
0000
0000
0000
0000
0000
0000
0000
0010
0000
0000
0000
0000
0000
0000
0000
0000
0000
0000
0000
0000
0000
0000
0000
0100
0000
0000
0000
0000
0000
0000
0000
0000
0000
0000
0000
0000
0000
0000
0000
1000
0000
0000
0000
0000
0000
0000
0000
0000
0000
0000
0000
0000
0000
0000
0000
0010
0000
0000
0000
0000
0000
0000
0000
0000
0000
0000
0000
0000
0000
0000
0000
0100
0000
0000
0000
0000
0000
0000
,
0000
0000
0000
0000
0000
0000
0000
0000
0000
0001
0000
0000
0000
0000
0000
0000
0000
0000
0000
0000
0000
0000
0000
0000
0000
0010
0000
0000
0000
0000
0000
0000
0000
0000
0000
0000
0000
0000
0000
0000
0001
0000
0000
0000
0000
0000
0000
0000
0000
0000
0000
0000
0000
0000
0000
0000
1000
0000
0000
0000
0000
0000
0000
0000
0000
0000
0000
0000
0000
0000
0000
0000
0010
0000
0000
0000
0000
0000
0000
0000
0000
0000
0000
0000
0000
0000
0000
0000
0100
0000
0000
0000
0000
0000
0000
0000
0000
0000
0000
0000
0000
0000
0000
0000
0001
0000
0000
0000
0000
0000
0000
0000
0000
0000
0000
0000
0000
0000
0000
0000
0100
0000
0000
0000
0000
0000
0000
0000
0000
0000
0000
0000
0000
0000
0000
0000
1010
0000
0000
0000
0000
0000
0000
0000
0000
0000
0000
0000
0100
0000
0000
0000
0000
0000
0000
0000
0000
0000
0000
0000
1000
0000
0000
0000
0000
0000
0000
0000
0000
0000
0000
0000
0010
0000
0000
0000
0000
0000
0000
0000
0000
0000
0000
0000
1000
0000
0000
0000
0000
0000
0000
0000
,
0000
0000
0000
0000
0001
0000
0100
0000
0000
1000
0000
0000
0000
0000
0000
0000
1000
0000
0000
0000
0000
0010
0000
0000
0100
0000
0000
0000
0001
0000
0000
0000
0000
0000
0000
0000
0000
0000
0000
0000
1000
0000
0000
0000
0000
0100
0000
0000
0000
0000
0000
0000
0010
0000
0000
0000
0000
0000
0000
0000
0010
0000
0000
0001
1000
0000
0000
0000
0000
0000
0000
0000
0000
0000
0000
0000
0100
0000
0000
0000
0000
0000
0000
0000
0000
0000
0000
1000
0001
0000
0000
0000
0000
0000
0000
0000
0000
0000
0000
1000
0100
0000
0010
0000
0000
0000
0000
0000
0000
0000
0000
0000
0010
0000
0000
0000
0000
0000
0000
0000
0000
0000
0000
0000
0100
0000
0000
0000
0000
1110
0000
0000
0000
0000
0000
0000
0001
0000
0000
0000
0000
0000
0000
0000
0000
0000
0000
0000
0100
0000
0000
0000
0000
0000
0000
0000
0001
0000
0000
0000
1000
0000
0000
0000
0000
0000
0000
0000
0000
0000
0000
0000
0010
0000
0000
0000
0000
0001
0000
0000
0000
0000
0000
0000
1000
0000
0000
0000
0000
0000
0000
0000
,
0000
0000
0000
0000
0100
0000
0000
0000
0000
0010
0000
0000
0000
0000
0000
0000
1000
0000
0001
0000
0000
0000
0000
0000
0000
0000
0000
0000
0100
0000
0000
0000
0000
0000
0000
0000
0000
0000
0000
0010
0000
0000
0000
0000
0000
0000
0000
0000
0000
0000
0000
0111
0000
0000
0000
0000
0000
0000
0000
0000
0000
0000
0000
1000
0000
0000
0000
0000
0000
0000
0000
0000
0000
0000
0000
0001
0000
0000
0010
0000
0000
0000
0000
0000
0000
0000
0000
0100
0000
0000
0000
0000
0000
0000
0000
0000
0000
0000
0000
0001
0000
0000
0000
0000
0000
0100
0000
0000
0000
0000
0000
1000
0000
0000
0000
0000
0000
0000
0000
0000
0000
0000
0000
0001
0000
0000
0000
0000
0000
0000
0000
0000
0220
0000
0000
1001
0000
0000
0000
0000
0000
0000
0000
0000
0000
0000
0000
1000
0000
0000
0000
0000
0000
0000
0000
0000
0000
0000
0000
0001
0000
0000
0330
0000
0000
0000
0000
0000
0000
0000
0000
1000
0000
0000
0000
0000
0000
0000
0000
0000
0000
0000
0000
0001
0000
0000
0000
0000
0000
0000
0000
0000
,
0000
0010
0000
0000
0000
0100
0000
0000
0000
1000
0000
0000
0000
0100
0000
0000
0000
0010
0000
0000
0000
0001
0000
0000
0000
0100
0000
0000
0000
0100
0000
0000
0000
1000
0000
0000
0000
0110
0000
0000
0000
0010
0000
0000
0000
0100
0000
0000
0000
1001
0000
0000
0000
0100
0000
0000
0000
0010
0000
0000
0000
0001
0000
0000
,
0000
1000
0000
0000
0000
0100
0000
0000
0000
1000
0000
0000
0000
0101
0000
0000
0000
0010
0000
0000
0000
0100
0000
0001
0000
1000
0000
0000
0000
0100
0000
0000
0000
0010
0000
0000
0000
0001
0000
0000
0000
0010
0000
0000
0000
1100
0000
0000
0000
0100
0000
1000
0000
0010
0000
0000
0000
0001
0000
0000
0000
0011
0000
0000
,
0000
0000
0000
0100
0000
0000
0000
0000
0000
0000
0000
0000
0000
0000
0000
1001
0000
0000
0000
0000
0000
0000
0000
0000
0000
0000
0000
0100
0000
0000
0000
0000
0000
0000
0000
0000
0000
0000
0000
0010
0000
0000
0000
0000
0000
0000
0000
0000
0000
0000
0000
0100
0000
0000
0000
0000
0000
0010
0000
0000
0000
0000
0000
1000
0000
0000
0000
0000
0000
0100
0000
0000
0000
0000
0000
0001
0000
0000
0000
0000
0000
0000
0000
0000
0000
0000
0000
0010
0000
0000
0000
0000
0000
0000
0000
0000
0000
0000
0100
0000
0000
0000
0000
0000
0000
0000
0000
0000
0000
0000
0010
0000
0000
0000
0000
0000
0000
0000
0000
0000
0000
0000
0001
0000
0000
0000
0000
0000
0000
0000
0000
0000
0000
0000
0011
0000
0000
0000
0000
0000
0000
0000
0000
0000
0000
0000
0100
0000
0000
0000
0000
0000
0000
0000
0000
0000
0000
0000
1000
0000
0000
0000
0000
0000
0000
0000
0000
0000
0000
0000
0010
0000
0000
0000
0000
0000
0000
0000
0000
0000
0000
0000
0100
0000
0000
0000
0000
0000
0000
0000
0000
0000
,
0000
0000
0001
0000
0000
0000
0000
0000
0000
0000
0000
0000
0000
0000
0100
0000
0000
0000
0000
0000
0000
0000
0000
0000
0000
0000
0001
0000
0000
0000
0000
0000
0000
0000
0000
0000
0000
0000
1100
0000
0000
0000
0000
0000
0000
0000
0000
0000
0000
0000
1000
0000
0000
0000
0000
0000
0000
0000
0000
0000
0000
0000
0010
0000
0000
0000
0000
0000
0000
0000
0000
0000
0000
0000
0100
0000
0000
0000
0000
0000
0000
0000
0000
0000
0000
0000
0001
0000
0000
0000
0000
0000
0000
0000
0000
0000
0000
0000
0100
0000
0000
0000
0000
0000
0000
0000
0000
0000
0000
0000
0010
0000
0000
0000
0000
0000
0000
0000
0000
0000
0000
0000
1000
0000
0000
0000
0000
0000
0000
0000
0000
0000
0000
0000
1010
0000
0000
0000
0000
0000
0000
0000
0000
0000
0000
0000
0100
0000
0000
0000
0000
0000
0000
0000
0000
0000
0000
0000
0010
0000
0000
0000
0000
0000
0000
0000
0000
0000
0000
0000
1000
0000
0000
0000
0000
0000
0000
0000
0000
0000
0000
0000
0001
0000
0000
0000
0000
0000
0000
0000
0000
0000
,
0000
0000
0010
0000
0000
0000
0000
0000
0000
0000
0000
0000
0000
0000
0100
0000
0000
0000
0000
0000
0000
0000
0000
0000
0000
0000
1000
0000
0000
0000
0000
0000
0000
0000
0000
0000
0000
0000
0010
0000
0000
0000
0000
0000
0000
0000
0000
0000
0000
0000
0100
0000
0000
0000
0000
0000
0000
0000
0000
0000
0000
0000
0001
0000
0000
0000
0000
0000
0000
0000
0000
0000
0000
0000
0010
0000
0000
0000
0000
0000
0000
0000
0000
0000
0000
0000
0100
0000
0000
0000
0000
0000
0000
0000
0000
0000
0000
0000
1000
0000
0000
0000
0000
0000
0000
0000
0000
0000
0000
0000
0010
0000
0000
0000
0000
0000
0000
0000
0000
0000
0000
0000
0100
0000
0000
0000
0000
0000
0000
0000
0000
0000
0000
0000
0101
0000
0000
0000
0000
0000
0000
0000
0000
0000
0000
0000
0010
0000
0000
0000
0000
0000
0000
0000
0000
0000
0000
0000
0100
0000
0000
0000
0000
0000
0000
0000
0000
0000
0000
0000
1000
0000
0000
0000
0000
0000
0000
0000
0000
0000
0000
0000
0100
0000
0000
0000
0000
0000
0000
0000
0000
0000
,
0000
0000
0010
0000
0000
0000
0000
0000
0000
0000
0000
0000
0000
0000
0001
0000
0000
0000
0000
0000
0000
0000
0000
0000
0000
0000
0010
0000
0000
0000
0000
0000
0000
0000
0000
0000
0000
0000
0100
0000
0000
0000
0000
0000
0000
0000
0000
0000
0000
0000
0010
0000
0000
0000
0000
0000
0000
0000
0000
0000
0000
0000
0001
0000
0000
0000
0000
0000
0000
0000
0000
0000
0000
0000
0100
0000
0000
0000
0000
0000
0000
0000
0000
0000
0000
0000
0010
0000
0000
0000
0000
0000
0000
0000
0000
0000
0000
0000
1000
0000
0000
0000
0000
0000
0000
0000
0000
0000
0000
0000
0100
0000
0000
0000
0000
0000
0000
0000
0000
0000
0000
0000
0010
0000
0000
0000
0000
0000
0000
0000
0000
0000
0000
0000
1002
0000
0000
0000
0000
0000
0000
0000
0000
0000
0000
0000
0100
0000
0000
0000
0000
0000
0000
0000
0000
0000
0000
0000
0010
0000
0000
0000
0000
0000
0000
0000
0000
0000
0000
0000
0100
0000
0000
0000
0000
0000
0000
0000
0000
0000
0000
0000
1000
0000
0000
0000
0000
0000
0000
0000
0000
0000
,
0000
0000
0100
0000
0000
0000
0000
0000
0000
0000
0000
0000
0000
0000
0010
0000
0000
0000
0000
0000
0000
0000
0000
0000
0000
0000
0100
0000
0000
0000
0000
0000
0000
0000
0000
0000
0000
0000
0010
0000
0000
0000
0000
0000
0000
0000
0000
0000
0000
0000
0100
0000
0000
0000
0000
0000
0000
0000
0000
0000
0000
0000
0010
0000
0000
0000
0000
0000
0000
0000
0000
0000
0000
0000
0100
0000
0000
0000
0000
0000
0000
0000
0000
0000
0000
0000
1000
0000
0000
0000
0000
0000
0000
0000
0000
0000
0000
0000
0100
0000
0000
0000
0000
0000
0000
0000
0000
0000
0000
0000
1000
0000
0000
0000
0000
0000
0000
0000
0000
0000
0000
0000
0100
0000
0000
0000
0000
0000
0000
0000
0000
0000
0000
0000
1000
0000
0000
0000
0000
0000
0000
0000
0000
0000
0000
0000
0100
0000
0000
0000
0000
0000
0000
0000
0000
0000
0000
0000
0010
0000
0000
0000
0000
0000
0000
0000
0000
0000
0000
0000
0100
0000
0000
0000
0000
0000
0000
0000
0000
0000
0000
0000
1000
0000
0000
0000
0000
0000
0000
0000
0000
0000
,
0000
0000
0100
0000
0000
0000
0000
0000
0000
0000
0000
0000
0000
0000
0010
0000
0000
0000
0000
0000
0000
0000
0000
0000
0000
0000
0100
0000
0000
0000
0000
0000
0000
0000
0000
0000
0000
0000
1000
0000
0000
0000
0000
0000
0000
0000
0000
0000
0000
0000
0100
0000
0000
0000
0000
0000
0000
0000
0000
0000
0000
0000
1000
0000
0000
0000
0000
0000
0000
0000
0000
0000
0000
0000
0010
0000
0000
0000
0000
0000
0000
0000
0000
0000
0000
0000
0100
0000
0000
0000
0000
0000
0000
0000
0000
0000
0000
0000
0010
0000
0000
0000
0000
0000
0000
0000
0000
0000
0000
0000
0100
0000
0000
0000
0000
0000
0000
0000
0000
0000
0000
0000
0013
0000
0000
0000
0000
0000
0000
0000
0000
0000
0000
0000
0110
0000
0000
0000
0000
0000
0000
0000
0000
0000
2002
0000
0000
0000
0000
0000
0000
0000
0000
0000
0000
0000
0000
0000
0000
0000
0000
0000
0000
0000
0000
0000
0000
0000
0000
0000
0000
0000
0000
0000
0000
0000
0000
0000
0000
0000
0000
0000
0000
0000
0000
0000
0000
0000
0000
0000
0000
0000
,
3003
0000
0000
0000
;

//---------------dance-single - ----------------
#NOTES:
     dance-single:
     :
     Medium:
     1:
     0.000,0.000,0.000,0.000,0.000,0.000,0.000,0.000,0.000,0.000:
0000
0000
0000
0000
;

//---------------dance-single - ----------------
#NOTES:
     dance-single:
     :
     Easy:
     1:
     0.000,0.000,0.000,0.000,0.000,0.000,0.000,0.000,0.000,0.000:
0000
0000
0000
0000
;
